Событие / The Event / Сезон: 01 / Серии: 1-4 (22) (Джеффри Рейнер) [2010, Фантастика, WEB-DL Rip, 720x400] (полный дубляж ТВ3 в СТЕРЕО+Оригинал+Кубик в Кубе DD5.1) rus sub

СКАЧАТЬ

Оценки посетителей:

Порекомендовало: 97

Вирусов не обнаружено:

Comments: 26

Событие / The Event (WEB-DLRip HQ) (дубляж ТВ3 СТЕРЕО)
Год выпуска: 2010
Страна: США
Жанр: Фантастика, Драма
Продолжительность: ~43:30
Перевод 1: Полный дубляж ТВ3 в стерео
Перевод 2: Профессиональный (многоголосый закадровый) Кубик в Кубе
Русские субтитры: есть (nonzjay, P13)
Режиссёр: Джеффри Рейнер
В ролях: Джейсон Риттер, Блэр Андервуд, Лора Иннес, Желько Иванек, Сара Ремер, Скотт Паттерсон, Клифтон Коллинз мл., Йен Энтони Дэйл, Билл Смитрович, Тейлор Коул и др.
Описание: Загадочная и напряженная история с непредсказуемыми поворотами сюжета начинается с пропажи невесты главного героя, а точнее будет сказать, исчезновения, поскольку, возникает впечатление, что ее и не существовало: никто не может вспомнить, что когда-либо ее видел, или что-либо слышал о ней. Бросающийся на поиски герой, исполненный решимости разгадать загадку, добирается до самых верхних эшелонов власти и неожиданно понимает, что стал пешкой в таинственной игре, ведущейся на уровне сильных мира сего, известных и, до поры, нет. И игра эта, похоже, может не только повлиять на жизнь каждого, но и перевернуть наши представления о мире.
Сериал «Событие» (The Event) – одна из самых ожидаемых премьер сезона 2010-2011. Показ пилота на традиционном Лос-Анжелесском скрининге в мае вызвал неподдельный интерес и самый мощный резонанс среди профессионалов телеиндустриии. Премьера состоялась 20 сентября 2010 года и стала самым успешным запуском драматического сериала за последние три года на канале NBC. Всего в первом сезоне будет показано 22 серии (Источник)
Доп. информация: Дорожка дубляжа - реальное СТЕРЕО, с нормальным частотным и динамическим диапазоном. В остальных релизах c ТВ3 (в том числе и с Lostfilm.TV) - моно, разнесенное на 2 канала. Второй перевод (Кубик в Кубе) сделан путем наложения чистого войса озвучивателей на центральный канал оригинальной дорожки. Рип создан для комфортного просмотра на домашнем бытовом DVD-плеере. Звуковые дорожки переключаются как обычно, т. е. пультом. Размер рипа выбран из расчета 5 серий на диск (всего пять дисков на сезон).
Качество: Web-DLRip
Формат: AVI
Видео кодек: XviD
Аудио кодек: AC3
Видео: XviD, 720х400, ~1 850 kbps, 23.976 fps, 0.267 bits/pixel
Аудио 1: 48000 Hz, DD 2.0 (L.R), 320 kbps (дубляж ТВ3 СТЕРЕО)
Аудио 2: 48000 Hz, DD 5.1 (L,C,R,sl,sr) + LFE, 384 kbps (Кубик в Кубе)
Аудио 3: 48000 Hz, DD 5.1 (L,C,R,sl,sr) + LFE, 384 kbps (Original)
Субтитры: Русские (nonzjay, P13)-Работа со звуком: CEZAR
Работа с видео: CEZAR
Подготовка релиза: CEZAR ©- Список серий Эпизод - 01: I Havent Told You Everything
Эпизод - 02: To Keep Us Safe
Эпизод - 03: Protect Them from the Truth
Эпизод - 04: A Matter of Life and Death
Эпизод - 05: Casualties of War
Эпизод - 06: Loyalty
Эпизод - 07:
Эпизод - 08:
Эпизод - 09:
Эпизод - 10:
Эпизод - 11:
Эпизод - 12:
Эпизод - 13:
Эпизод - 14:
Эпизод - 15:
Эпизод - 16:
Эпизод - 17:
Эпизод - 18:
Эпизод - 19:
Эпизод - 20:
Эпизод - 21:
Эпизод - 22: Альтернативные раздачи Весь сериал MI General
Complete name : G:/torrent/The Event/TheEvent.S01.WEB-DLRip.DD5.1+DD5.1.RUS+DD2.0.Dubl.CEZAR/TheEvent.S01E01.WEB-DLRip.DD5.1+DD5.1.RUS+DD2.0.Dubl.CEZAR.avi
Format : AVI
Format/Info : Audio Video Interleave
File size : 899 MiB
Duration : 42mn 34s
Overall bit rate : 2 952 Kbps
Writing application : VirtualDubMod 1.5.10.2 (build 2540/release)
Writing library : VirtualDubMod build 2540/release
Video
ID : 0
Format : MPEG-4 Visual
Format profile : AdvancedSimple@L5
Format settings, BVOP : Yes
Format settings, QPel : No
Format settings, GMC : No warppoints
Format settings, Matrix : Custom
Codec ID : XVID
Codec ID/Hint : XviD
Duration : 42mn 34s
Bit rate : 1 845 Kbps
Width : 720 pixels
Height : 400 pixels
Display aspect ratio : 16:9
Frame rate : 23.976 fps
Resolution : 24 bits
Colorimetry : 4:2:0
Scan type : Progressive
Bits/(Pixel*Frame) : 0.267
Stream size : 562 MiB (63%)
Writing library : XviD 1.2.1 (UTC 2008-12-04)
Audio #1
ID : 1
Format : AC-3
Format/Info : Audio Coding 3
Codec ID : 2000
Duration : 42mn 34s
Bit rate mode : Constant
Bit rate : 320 Kbps
Channel(s) : 2 channels
Channel positions : L R
Sampling rate : 48.0 KHz
Stream size : 97.4 MiB (11%)
Alignment : Split accross interleaves
Interleave, duration : 42 ms (1.00 video frame)
Interleave, preload duration : 500 ms
Title : ru-ТВ3
Audio #2
ID : 2
Format : AC-3
Format/Info : Audio Coding 3
Codec ID : 2000
Duration : 42mn 34s
Bit rate mode : Constant
Bit rate : 384 Kbps
Channel(s) : 6 channels
Channel positions : Front: L C R, Surround: L R, LFE
Sampling rate : 48.0 KHz
Stream size : 117 MiB (13%)
Alignment : Split accross interleaves
Interleave, duration : 42 ms (1.00 video frame)
Interleave, preload duration : 500 ms
Title : ru-Kubik v Kube
Audio #3
ID : 3
Format : AC-3
Format/Info : Audio Coding 3
Codec ID : 2000
Duration : 42mn 34s
Bit rate mode : Constant
Bit rate : 384 Kbps
Channel(s) : 6 channels
Channel positions : Front: L C R, Surround: L R, LFE
Sampling rate : 48.0 KHz
Stream size : 117 MiB (13%)
Alignment : Split accross interleaves
Interleave, duration : 42 ms (1.00 video frame)
Interleave, preload duration : 500 ms
Title : en-Original Скриншоты Раздача ведётся путём добавления новых серий Внимание! Раздача ведётся путём добавления новых серий- при каждом добавлении создётся новый торрент. Чтобы начать докачку новой серии, пользователям необходимо сделать следующее:
остановить скачивание,
удалить старый торрент у себя из клиента (старые серии удалять не надо),
скачать новый торрент и запустить его у себя в клиенте вместо старого, при этом указать клиенту путь в старую папку куда и должно происходить скачивание новых серий.
Ваш клиент при этом должен произвести хеширование (проверку) старой папки (если не производит сам - помогите ему сделать это), и будет докачивать только те серии которых у вас ещё нет. Старые серии при этом не удаляются, а продолжают раздаваться!
Eсли вы уже удалили старые серии, то предотвратить повторную закачку старых серий можно, отжав галочку в соответсвующих местах при запуске нового торрента.

Подобные файлы

Borderlands (2009) PC | Repack

Основные качества речи. Стили русского языка

Футбол. Чемпионат Испании 2012-13. 18-й тур. Барселона - Эспаньол (2012) HDTV 1080i

Фантом / The Phantom (1996) HDRip

Париж-Манхэттен / Paris-Manhattan (2012) BDRip 720p

Хип Хоп TV с НоГГано и Купэ / в гостях White Smoke Clan ( 2011 / Rap / HDRip )